Pomoč pogostih vprašanjPomoč pogostih vprašanj   IščiIšči   Seznam članovSeznam članov   Skupine uporabnikovSkupine uporabnikov   Registriraj seRegistriraj se   Tvoj profilTvoj profil   Prijava za pregled zasebnih sporočilPrijava za pregled zasebnih sporočil   PrijavaPrijava 

Dynamic Range Meter
Pojdi na stran Prejšnja  1, 2, 3  Naslednja
 
Objavi novo temo   Odgovori na to temo    Kazalo po www.audio-kontakt.com forumu -> CD, Vinil, DVD, Blu-ray
Poglej prejšnjo temo :: Poglej naslednjo temo  
Avtor Sporočilo
JAZZZ



Pridružen/-a: Sre Apr 2008 12:32
Prispevkov: 2678
Kraj: POSAVEC

PrispevekObjavljeno: Ned Maj 27, 2012 00:22    Naslov sporočila: Odgovori s citatom

Ravno delam na posnetku Balanescu/ Kaučič/Girotto (iz škofjeloške kapelice) in ima DR 17 , solo sax Sabir Mateena DR 12, solo Zlatka Kaučiča(Cerkno2011) DR15 ...
_________________
"There are two kinds of fools. One says-this is old and therefore good. The other says-this is new and therefore better." Bob Katz
Nazaj na vrh
Poglej uporabnikov profil Pošlji zasebno sporočilo Obišči avtorjevo spletno stran
audiofill



Pridružen/-a: Tor Apr 2008 19:48
Prispevkov: 5406
Kraj: Celje

PrispevekObjavljeno: Ned Maj 27, 2012 09:51    Naslov sporočila: Odgovori s citatom

JAZZZ je napisal/a:
Ravno delam na posnetku Balanescu/ Kaučič/Girotto (iz škofjeloške kapelice) in ima DR 17 , solo sax Sabir Mateena DR 12, solo Zlatka Kaučiča(Cerkno2011) DR15 ...


Iztok, tvoji posnetki so itak iber. Smile

No tale Collinsov remaster me je zelo pozitivno presenetil. DR14 za komercialni pop album je čista znanstvena fantastika. Over the top. Toliko dinamike marsikatero audiofilsko izdanje ne premore...

Za foro sem spustil skozi nor posnetek Mickey Hart & Airto Moreira & Flora Purim - Dafos:



Izvrglo je odličen DR15 ... za prvi in najbolj dinamičen komad pa celo DR22 Shocked Shocked Shocked

Raport:

foobar2000 1.1.11 / Dynamic Range Meter 1.1.1
log date: 2012-05-27 09:39:23

--------------------------------------------------------------------------------
Analyzed: Mickey Hart, Airto, Flora Purim / Dafos
--------------------------------------------------------------------------------

DR Peak RMS Duration Track
--------------------------------------------------------------------------------
DR22 -0.76 dB -32.51 dB 5:06 01-Dry Sands of the Desert
DR11 -10.43 dB -28.68 dB 1:23 02-Ice of the North
DR18 -3.43 dB -26.19 dB 9:54 03-Reunion I, II, & III
DR17 -3.85 dB -25.52 dB 5:11 04-Saudacao Popular
DR11 -0.68 dB -18.24 dB 4:38 05-Psychopomp
DR8 -9.74 dB -21.37 dB 2:13 06-Subterranean Caves of Kronos
DR17 -0.73 dB -22.70 dB 3:55 07-The Gates of Dafos
DR16 -0.26 dB -21.92 dB 11:06 08-Passage
--------------------------------------------------------------------------------

Number of tracks: 8
Official DR value: DR15

Samplerate: 44100 Hz
Channels: 2
Bits per sample: 16
Bitrate: 855 kbps
Codec: FLAC
Nazaj na vrh
Poglej uporabnikov profil Pošlji zasebno sporočilo Pošlji E-sporočilo
ck



Pridružen/-a: Pon Feb 2009 19:27
Prispevkov: 1185
Kraj: kamnik

PrispevekObjavljeno: Ned Maj 27, 2012 11:36    Naslov sporočila: Odgovori s citatom

Audiofil

Kje si nabavu Dafos.

Ga že nekaj časa iščem.
_________________
LP
Nazaj na vrh
Poglej uporabnikov profil Pošlji zasebno sporočilo
audiofill



Pridružen/-a: Tor Apr 2008 19:48
Prispevkov: 5406
Kraj: Celje

PrispevekObjavljeno: Pon Maj 28, 2012 08:39    Naslov sporočila: Odgovori s citatom

ck je napisal/a:
Audiofil

Kje si nabavu Dafos.

Ga že nekaj časa iščem.


Ne spomnim se, imam ga že več let.

Ko že o Mickeyu Hartu, evo še en njegov zanimiv... Planet drum / Supralingua



CD raport:

foobar2000 1.1.11 / Dynamic Range Meter 1.1.1
log date: 2012-05-28 05:29:33

--------------------------------------------------------------------------------
Analyzed: Mickey Hart - Planet Drum / Supralingua
--------------------------------------------------------------------------------

DR Peak RMS Duration Track
--------------------------------------------------------------------------------
DR14 -0.25 dB -15.86 dB 4:54 01-Angola
DR11 -0.38 dB -13.78 dB 4:44 02-Yabu
DR13 -0.31 dB -15.54 dB 2:50 03-Endless River
DR11 -0.51 dB -13.95 dB 6:04 04-Umayeyo
DR12 -0.53 dB -14.16 dB 3:13 05-Secret Meeting Place
DR11 -0.38 dB -13.92 dB 5:38 06-Tall Grass
DR10 -0.36 dB -12.17 dB 5:22 07-Umasha
DR12 -0.38 dB -14.75 dB 4:46 08-Frog Dance
DR11 -0.38 dB -12.84 dB 3:06 09-Damawoo
DR12 -0.50 dB -13.70 dB 4:44 10-Indoscrub
DR13 -0.48 dB -16.94 dB 6:16 11-Wheel of Time
DR13 -8.54 dB -26.73 dB 2:56 12-Space Dust
--------------------------------------------------------------------------------

Number of tracks: 12
Official DR value: DR12

Samplerate: 44100 Hz
Channels: 2
Bits per sample: 16
Bitrate: 745 kbps
Codec: FLAC

Bonus CD raport:

foobar2000 1.1.11 / Dynamic Range Meter 1.1.1
log date: 2012-05-28 05:31:19

--------------------------------------------------------------------------------
Analyzed: Mickey Hart - Planet Drum / Supralingua Bonus Disc
--------------------------------------------------------------------------------

DR Peak RMS Duration Track
--------------------------------------------------------------------------------
DR7 -2.80 dB -11.93 dB 6:26 01-Umasha (Strawberry Swamp Fever Mix)
DR9 -2.92 dB -14.32 dB 5:51 02-Yabu (Transmigration Mix #2)
DR16 0.00 dB -17.13 dB 8:28 03-Umayeyo (Slakked Plastik Remix)
DR11 0.00 dB -13.27 dB 6:22 04-Wheel of Time (Stolen Moments Real Time Dub Crime Remix)
--------------------------------------------------------------------------------

Number of tracks: 4
Official DR value: DR11

Samplerate: 44100 Hz
Channels: 2
Bits per sample: 16
Bitrate: 565 kbps
Codec: FLAC
Nazaj na vrh
Poglej uporabnikov profil Pošlji zasebno sporočilo Pošlji E-sporočilo
JAZZZ



Pridružen/-a: Sre Apr 2008 12:32
Prispevkov: 2678
Kraj: POSAVEC

PrispevekObjavljeno: Pon Maj 28, 2012 10:45    Naslov sporočila: Odgovori s citatom

Aljoša
zdej ko imaš izkušnje, si kdaj probal sam oceniti DNR in potem primerjati z izračunanim?
_________________
"There are two kinds of fools. One says-this is old and therefore good. The other says-this is new and therefore better." Bob Katz
Nazaj na vrh
Poglej uporabnikov profil Pošlji zasebno sporočilo Obišči avtorjevo spletno stran
nek_do



Pridružen/-a: Čet Okt 2009 21:22
Prispevkov: 2119
Kraj: Ljubljana

PrispevekObjavljeno: Pon Maj 28, 2012 19:12    Naslov sporočila: Odgovori s citatom

Zanimivo ravno pri Däfosu bi tako na uho rekel da je večja dinamika prej pri 7. komadu The Gates of Däfos ali pa 5.komadu Psychopomp, ki je tudi "mali strupek" za zvočnike kot pa pri prvem.

Je pa še nekaj, kot pri dosti drugih cd-jih so tudi pri tem zaznavne razlike-tudi v dinamiki odvisne glede na samo izdajo oz. izdajatelja.

Däfos Reference Recording RR-12 CD leto 1984
Däfos Rykodisc RCD 10108 leto 1989
Däfos Rykodisc AU 20 leto 1993 zlata v legendarni zeleni škatli s cert.

_________________
Lep je dan
Nazaj na vrh
Poglej uporabnikov profil Pošlji zasebno sporočilo
orc.perc



Pridružen/-a: Sre Nov 2009 22:05
Prispevkov: 527
Kraj: Posr.Park

PrispevekObjavljeno: Tor Maj 29, 2012 21:42    Naslov sporočila: Odgovori s citatom

Kot zanimivost, 30sec tišine, same nule, torej, čez 1.3mio ničel, zdaj pa, en sam sample potegnemo do 0dBFS;
DR=51 (16bit)
_________________
-1/3oct.REar
Nazaj na vrh
Poglej uporabnikov profil Pošlji zasebno sporočilo
audiofill



Pridružen/-a: Tor Apr 2008 19:48
Prispevkov: 5406
Kraj: Celje

PrispevekObjavljeno: Ned Jun 10, 2012 10:05    Naslov sporočila: Odgovori s citatom

JAZZZ je napisal/a:
Aljoša
zdej ko imaš izkušnje, si kdaj probal sam oceniti DNR in potem primerjati z izračunanim?


Nisem še. Pa ne bi rekel da imam izkušnje, to je bolj špilčkanje. Smile

Vmes kupil dva nova 24/192 remasterja Norah Jones in wow kaka razlika napram cd izdanju. Kot bi z zvočnikov odkril dekno. Norahin vokal dobi čisto drugo dimenzijo. Smile

HDtracks pravi, da gre za remaster iz analognih trakov, jaz pa pravim, da bi moralo tako zveneti že cd izdanje, ne vem kaj ga je Blue note biksal ko je dal ven cd, tole zdaj je druga stvar. Aja pa zanimivo, da so v dobi digitalije snemali na trak.

cd izdanji in hi-res remasterja sem za foro dal prežvečit dynamic range metru, izvrglo je tole:

- Come away with me cd izdanje:

foobar2000 1.1.11 / Dynamic Range Meter 1.1.1
log date: 2012-06-10 09:31:04

--------------------------------------------------------------------------------
Analyzed: Norah Jones / Come Away With Me
--------------------------------------------------------------------------------

DR Peak RMS Duration Track
--------------------------------------------------------------------------------
DR9 -0.11 dB -12.97 dB 3:06 01-Don't Know Why
DR9 -0.64 dB -12.85 dB 2:25 02-Seven Years
DR11 -0.75 dB -15.20 dB 3:39 03-Cold Cold Heart
DR9 -0.61 dB -12.12 dB 2:57 04-Feelin' The Same Way
DR11 -0.63 dB -15.41 dB 3:18 05-Come Away With Me
DR10 -0.61 dB -13.19 dB 3:57 06-Shoot The Moon
DR10 -0.61 dB -13.65 dB 2:35 07-Turn Me On
DR12 -0.74 dB -15.76 dB 3:06 08-Lonestar
DR11 -0.61 dB -14.72 dB 4:13 09-I've Got To See You Again
DR13 -0.61 dB -17.22 dB 2:42 10-Painter Song
DR11 -0.11 dB -13.93 dB 3:06 11-One Flight Down
DR9 -0.11 dB -12.76 dB 4:12 12-Nightingale
DR12 -0.75 dB -16.00 dB 2:45 13-The Long Day Is Over
DR14 -0.96 dB -18.76 dB 3:08 14-The Nearness Of You
--------------------------------------------------------------------------------

Number of tracks: 14
Official DR value: DR11

Samplerate: 44100 Hz
Channels: 2
Bits per sample: 16
Bitrate: 632 kbps
Codec: FLAC

- Come away with me hi-res:

foobar2000 1.1.11 / Dynamic Range Meter 1.1.1
log date: 2012-06-10 09:32:53

--------------------------------------------------------------------------------
Analyzed: Norah Jones / Come Away with Me
--------------------------------------------------------------------------------

DR Peak RMS Duration Track
--------------------------------------------------------------------------------
DR10 0.00 dB -14.22 dB 3:07 01-Don't Know Why
DR11 -0.43 dB -14.05 dB 2:26 02-Seven Years
DR12 -0.01 dB -15.17 dB 3:39 03-Cold Cold Heart
DR11 0.00 dB -13.97 dB 2:58 04-Feelin' the Same Way
DR12 -0.57 dB -16.78 dB 3:18 05-Come Away with Me
DR12 -0.02 dB -14.97 dB 3:57 06-Shoot the Moon
DR12 -0.05 dB -16.01 dB 2:35 07-Turn Me On
DR13 -1.36 dB -18.14 dB 3:07 08-Lonestar
DR13 -0.25 dB -16.52 dB 4:13 09-I've Got to See You Again
DR14 -0.12 dB -18.58 dB 2:42 10-Painter Song
DR13 -0.10 dB -16.68 dB 3:06 11-One Flight Down
DR12 -0.13 dB -15.95 dB 4:12 12-Nightingale
DR13 -1.14 dB -18.19 dB 2:45 13-The Long Day Is Over
DR15 -2.09 dB -21.33 dB 3:10 14-The Nearness of You
--------------------------------------------------------------------------------

Number of tracks: 14
Official DR value: DR12

Samplerate: 192000 Hz
Channels: 2
Bits per sample: 24
Bitrate: 5344 kbps
Codec: FLAC

- Feels like home cd izdanje:

foobar2000 1.1.11 / Dynamic Range Meter 1.1.1
log date: 2012-06-10 09:36:53

--------------------------------------------------------------------------------
Analyzed: Norah Jones / Feels like Home
--------------------------------------------------------------------------------

DR Peak RMS Duration Track
--------------------------------------------------------------------------------
DR7 0.00 dB -9.10 dB 3:44 01-Above Ground
DR7 -0.50 dB -9.74 dB 3:29 02-Be Here to Love Me
DR10 -0.53 dB -13.63 dB 3:12 03-Carnival Town
DR7 0.00 dB -9.66 dB 3:04 04-Creepin' In
DR12 0.00 dB -15.93 dB 3:08 05-Don't Miss You at All
DR10 -0.53 dB -13.04 dB 4:36 06-Humble Me
DR8 0.00 dB -10.47 dB 4:07 08-In the Morning
DR7 0.00 dB -10.21 dB 3:21 11-Sunrise
DR11 0.00 dB -13.41 dB 3:13 12-The Long Way Home
DR8 -0.40 dB -11.43 dB 3:52 13-The Prettiest Thing
DR8 0.00 dB -10.40 dB 3:23 14-Those Sweet Words
DR7 -1.00 dB -10.35 dB 3:47 15-Toes
DR7 0.00 dB -9.46 dB 3:30 16-What Am I to You
--------------------------------------------------------------------------------

Number of tracks: 13
Official DR value: DR8

Samplerate: 44100 Hz
Channels: 2
Bits per sample: 16
Bitrate: 795 kbps
Codec: FLAC

- Feels like home hi-res:

foobar2000 1.1.11 / Dynamic Range Meter 1.1.1
log date: 2012-06-10 09:39:42

--------------------------------------------------------------------------------
Analyzed: Norah Jones / Feels Like Home
--------------------------------------------------------------------------------

DR Peak RMS Duration Track
--------------------------------------------------------------------------------
DR10 -0.57 dB -13.96 dB 3:20 01-Sunrise
DR11 -0.12 dB -14.22 dB 3:29 02-What Am I to You?
DR12 -0.40 dB -15.31 dB 3:22 03-Those Sweet Words
DR13 -0.23 dB -17.71 dB 3:11 04-Carnival Town
DR12 -0.10 dB -15.25 dB 4:07 05-In the Morning
DR11 -0.06 dB -13.45 dB 3:29 06-Be Here to Love Me
DR11 0.00 dB -13.78 dB 3:03 07-Creepin' In (feat. Dolly Parton)
DR11 -0.51 dB -14.19 dB 3:46 08-Toes
DR12 -1.91 dB -17.20 dB 4:34 09-Humble Me
DR11 0.00 dB -13.48 dB 3:42 10-Above Ground
DR12 -2.64 dB -17.33 dB 3:13 11-The Long Way Home
DR13 0.00 dB -16.19 dB 3:51 12-The Prettiest Thing
DR14 -1.81 dB -19.99 dB 3:10 13-Don't Miss You at All
--------------------------------------------------------------------------------

Number of tracks: 13
Official DR value: DR12

Samplerate: 192000 Hz
Channels: 2
Bits per sample: 24
Bitrate: 5202 kbps
Codec: FLAC

Pri Feels like home je kar 4 DR-je preskoka v plus. Shocked
Nazaj na vrh
Poglej uporabnikov profil Pošlji zasebno sporočilo Pošlji E-sporočilo
longplay



Pridružen/-a: Sob Sep 2011 7:53
Prispevkov: 695
Kraj: Ptuj

PrispevekObjavljeno: Ned Jul 22, 2012 22:48    Naslov sporočila: Odgovori s citatom

Imam foobar 1.1.14 beta v računalniku, prenesel sem tudi dynamic range meter ( plug in).
Prenešen dynamic range meter je zazipan kako ga odzipati?
Hudimana zadeva ne gre Twisted Evil Embarassed Sad
Kako naj spravim (plug in) v foobar da bi testiral posnetke. Question
Kako jih testirati prosim za opis.
Prosim za natančen opis kako nastaviti plug in, in kako foobar da bom lahko testiral dinamično vrednost posnetkov.
Nazaj na vrh
Poglej uporabnikov profil Pošlji zasebno sporočilo
audiofill



Pridružen/-a: Tor Apr 2008 19:48
Prispevkov: 5406
Kraj: Celje

PrispevekObjavljeno: Ned Jul 22, 2012 23:41    Naslov sporočila: Odgovori s citatom

V Foobaru greš zgoraj kjer so meniji v LIBRARY in nato CONFIGURE. Odpre se ti novo okno. V njem greš na COMPONENTS in nato INSTALL. Takole:



Odprl se bo raziskalec v katerem nato lociraš to ZIP plugin datoteko ki si jo prenesel, klikneš okej in se inštalira samo. Nato ugasneš in ponovno zaženeš Foobar.

Odpreš željeno glasbo v Foobaru, jo z miško označiš in kontra klik. Odpre se spodnji meni, kjer izbereš Dynamic range meter:



To je to.

lp
Nazaj na vrh
Poglej uporabnikov profil Pošlji zasebno sporočilo Pošlji E-sporočilo
audiofill



Pridružen/-a: Tor Apr 2008 19:48
Prispevkov: 5406
Kraj: Celje

PrispevekObjavljeno: Tor Jun 04, 2013 17:17    Naslov sporočila: Odgovori s citatom

Poslušam dva albuma Zakir Hussaina in mi slišana dinamika ne da miru, da ju ne bi šel izmerit. Se mi je zdelo, da mora izvreči huronsko cifro in jima tudi je. Takšne vrednosti vidiš malokje.

Prvi posnetek ECM-ov:



foobar2000 1.1.11 / Dynamic Range Meter 1.1.1
log date: 2013-06-04 16:29:48

--------------------------------------------------------------------------------
Analyzed: Zakir Hussain / Making Music
--------------------------------------------------------------------------------

DR Peak RMS Duration Track
--------------------------------------------------------------------------------
DR19 -5.40 dB -29.98 dB 12:31 Making Music
DR15 -8.09 dB -28.44 dB 6:24 Zakir
DR20 -1.93 dB -27.74 dB 3:52 Water Girl
DR14 -10.74 dB -30.06 dB 3:51 Toni
DR21 -4.42 dB -33.00 dB 9:15 Anisa
DR15 -7.35 dB -29.88 dB 7:36 Sunjog
DR20 -5.53 dB -32.25 dB 2:13 You and Me
DR16 -7.90 dB -29.49 dB 3:35 Sabah
--------------------------------------------------------------------------------

Number of tracks: 8
Official DR value: DR18

Samplerate: 44100 Hz
Channels: 2
Bits per sample: 16
Bitrate: 480 kbps
Codec: FLAC

Drugi posnetek Moment-ov:



foobar2000 1.1.11 / Dynamic Range Meter 1.1.1
log date: 2013-06-04 16:33:58

--------------------------------------------------------------------------------
Analyzed: Zakir Hussian & Various Artists / Masters of Percussion
--------------------------------------------------------------------------------

DR Peak RMS Duration Track
--------------------------------------------------------------------------------
DR16 -1.25 dB -21.63 dB 5:55 Zakir Hussain & Narada Michael Walden / Path of Two (Drums)
DR19 -2.68 dB -26.11 dB 3:43 Zakir Hussain & K. Silvarman / A Quality of Seven (Mridangam)
DR16 -1.88 dB -22.79 dB 7:38 Zakir Hussain & K. Silvarman / Pancham (Mridangam)
DR21 -0.35 dB -27.74 dB 7:34 Zakir Hussain & Giovanni Hidalgo / Geezee (Congas)
DR22 0.00 dB -27.05 dB 33:52 Zakir Hussain & T.H. Vinayakram & Harishankar & Arjun Shejwal / Adital Quarte...
DR15 -4.33 dB -22.08 dB 7:31 Zakir Hussian & Ustad Sultan Khan & Fazal Quershi & Taufiq Qureshi / Tal Dhya...
--------------------------------------------------------------------------------

Number of tracks: 6
Official DR value: DR18

Samplerate: 44100 Hz
Channels: 2
Bits per sample: 16
Bitrate: 698 kbps
Codec: FLAC

Lušten material malo za naredit spremembo. Cool
Nazaj na vrh
Poglej uporabnikov profil Pošlji zasebno sporočilo Pošlji E-sporočilo
simon740



Pridružen/-a: Sob Sep 2012 15:59
Prispevkov: 770
Kraj: MARIBOR

PrispevekObjavljeno: Pet Jan 10, 2014 00:13    Naslov sporočila: Odgovori s citatom

foobar2000 1.3 / Dynamic Range Meter 1.1.1
log date: 2014-01-09 23:09:18

--------------------------------------------------------------------------------
Analyzed: Norah Jones / Not Too Late
--------------------------------------------------------------------------------

DR Peak RMS Duration Track
--------------------------------------------------------------------------------
DR13 -7.79 dB -25.21 dB 4:18 01-Wish I Could
DR14 -6.89 dB -23.85 dB 4:38 02-Sinkin' Soon
DR12 -8.46 dB -23.98 dB 3:00 03-The Sun Doesn't Like You
DR14 -5.87 dB -23.19 dB 3:55 04-Until The End
DR12 -9.30 dB -26.91 dB 2:55 05-Not My Friend
DR13 -6.18 dB -22.08 dB 3:34 06-Thinking About You
DR14 -6.97 dB -25.70 dB 3:20 07-Broken
DR13 -7.50 dB -25.38 dB 3:26 08-My Dear Country
DR13 -7.57 dB -24.20 dB 2:47 09-Wake Me Up
DR12 -7.16 dB -22.69 dB 3:36 10-Be My Somebody
DR14 -6.82 dB -26.21 dB 2:44 11-Little Room
DR13 -7.88 dB -24.60 dB 3:56 12-Rosie's Lullaby
DR15 -8.75 dB -27.41 dB 3:33 13-Not Too Late
--------------------------------------------------------------------------------

Number of tracks: 13
Official DR value: DR13

Samplerate: 88200 Hz
Channels: 2
Bits per sample: 24
Bitrate: 2401 kbps
Codec: FLAC
================================================================================
Nazaj na vrh
Poglej uporabnikov profil Pošlji zasebno sporočilo
mišolin



Pridružen/-a: Sob Dec 2008 19:04
Prispevkov: 438
Kraj: Maribor

PrispevekObjavljeno: Pet Jan 10, 2014 02:28    Naslov sporočila: Odgovori s citatom

audiofill je napisal/a:
Poslušam dva albuma Zakir Hussaina in mi slišana dinamika ne da miru, da ju ne bi šel izmerit. Se mi je zdelo, da mora izvreči huronsko cifro in jima tudi je. Takšne vrednosti vidiš malokje.

Prvi posnetek ECM-ov:



--------------------------------------------------------------------------------
Analyzed: Zakir Hussain / Making Music
--------------------------------------------------------------------------------

Number of tracks: 8
Official DR value: DR18




Evo, to je točno primer CDja, ki ga v avtu ne morem poslušat, ker zveni
obupno. Ali nič ne slišiš, ali pa ti trga membrane. Muzka prva liga,
ampak jo mora sistem bit sposoben ven spravit. Tu bi res bila dobra
ideja o kompresiranih izdajah za mini-sisteme in za v avto. Smile
Nazaj na vrh
Poglej uporabnikov profil Pošlji zasebno sporočilo
Bernard



Pridružen/-a: Čet Maj 2010 11:34
Prispevkov: 33
Kraj: Ravne na Koroškem

PrispevekObjavljeno: Ned Feb 02, 2014 14:50    Naslov sporočila: Odgovori s citatom

Pozdravljeni,

naložll sem foobar 2000 v 1.3.1 in v njem original plug in za DRM ne deluje. Tudi kot ste predlagali naj ga snamemo iz http://www.jokhan.demon.nl/DynamicRange/, žal ta stran ni dosegljiva.
Kje lahko dobim plug in ki bi deloval v omenjenem foobaru. Rad bi naredil
primerjavo z TT DR METER Offline 1.4 verzijo. Hvala za pomoč.
Lp
Nazaj na vrh
Poglej uporabnikov profil Pošlji zasebno sporočilo Pošlji E-sporočilo
audiofill



Pridružen/-a: Tor Apr 2008 19:48
Prispevkov: 5406
Kraj: Celje

PrispevekObjavljeno: Ned Feb 02, 2014 14:56    Naslov sporočila: Odgovori s citatom

Bernard je napisal/a:
Pozdravljeni,

naložll sem foobar 2000 v 1.3.1 in v njem original plug in za DRM ne deluje. Tudi kot ste predlagali naj ga snamemo iz http://www.jokhan.demon.nl/DynamicRange/, žal ta stran ni dosegljiva.
Kje lahko dobim plug in ki bi deloval v omenjenem foobaru. Rad bi naredil
primerjavo z TT DR METER Offline 1.4 verzijo. Hvala za pomoč.
Lp


Pošlji preko ZS svoj mail pa rešiva problem.

lp
Nazaj na vrh
Poglej uporabnikov profil Pošlji zasebno sporočilo Pošlji E-sporočilo
Pokaži sporočila:   
Objavi novo temo   Odgovori na to temo    Kazalo po www.audio-kontakt.com forumu -> CD, Vinil, DVD, Blu-ray Časovni pas GMT + 2 uri, srednjeevropski - poletni čas
Pojdi na stran Prejšnja  1, 2, 3  Naslednja
Stran 2 od 3

 
Pojdi na:  
Ne, ne moreš dodajati novih tem v tem forumu
Ne, ne moreš odgovarjati na teme v tem forumu
Ne, ne moreš urejati svojih prispevkov v tem forumu
Ne, ne moreš brisati svojih prispevkov v tem forumu
Ne ne moreš glasovati v anketi v tem forumu


Powered by phpBB © 2001, 2005 phpBB Group


Zadnje teme - HI-FI

Zadnje teme - ostalo

VIDEOTEKA
© www.audio-kontakt.com  |  info@audio-kontakt.com  |  Pogoji uporabe
Izdelava: slo-code.com