Pomoč pogostih vprašanjPomoč pogostih vprašanj   IščiIšči   Seznam članovSeznam članov   Skupine uporabnikovSkupine uporabnikov   Registriraj seRegistriraj se   Tvoj profilTvoj profil   Prijava za pregled zasebnih sporočilPrijava za pregled zasebnih sporočil   PrijavaPrijava 

Dynamic Range Meter
Pojdi na stran Prejšnja  1, 2, 3
 
Objavi novo temo   Odgovori na to temo    Kazalo po www.audio-kontakt.com forumu -> CD, Vinil, DVD, Blu-ray
Poglej prejšnjo temo :: Poglej naslednjo temo  
Avtor Sporočilo
longplay



Pridružen/-a: Sob Sep 2011 7:53
Prispevkov: 709
Kraj: Ptuj

PrispevekObjavljeno: Ned Nov 30, 2014 19:26    Naslov sporočila: Odgovori s citatom

https://www.youtube.com/watch?v=LDZX4ooRsWs

foobar2000 1.2.9 / Dynamic Range Meter 1.1.1
log date: 2014-11-30 02:54:44

--------------------------------------------------------------------------------
Statistics for: ?-Nicki Minaj - Anaconda
Number of samples: 12773999
Duration: 4:50
--------------------------------------------------------------------------------

Left Right

Peak Value: -4.39 dB --- -4.72 dB
Avg RMS: -15.63 dB --- -16.04 dB
DR channel: 7.12 dB --- 7.38 dB
--------------------------------------------------------------------------------

Official DR Value: DR7

Samplerate: 44100 Hz
Channels: 2
Bitrate: 128 kbps
Codec: MP3
==============================================================================


Nazadnje urejal/a longplay Tor Okt 27, 2015 02:27; skupaj popravljeno 1 krat
Nazaj na vrh
Poglej uporabnikov profil Pošlji zasebno sporočilo
longplay



Pridružen/-a: Sob Sep 2011 7:53
Prispevkov: 709
Kraj: Ptuj

PrispevekObjavljeno: Tor Okt 27, 2015 02:20    Naslov sporočila: Odgovori s citatom

Danes sprobal Hello od Adele peak za las da ne doseže ničle sem pričakoval da bo šlo čez ničlo, ker glas gre v nebo. Dynamic range pa kaže vrednost petih db. Shocked

foobar2000 1.2.9 / Dynamic Range Meter 1.1.1
log date: 2015-10-27 01:30:20

--------------------------------------------------------------------------------
Statistics for: ?-Adele - Hello
Number of samples: 16180463
Duration: 6:07
--------------------------------------------------------------------------------

Left Right

Peak Value: 0.00 dB --- 0.00 dB
Avg RMS: -9.26 dB --- -9.00 dB
DR channel: 5.21 dB --- 4.88 dB
--------------------------------------------------------------------------------

Official DR Value: DR5

Samplerate: 44100 Hz
Channels: 2
Bitrate: 128 kbps
Codec: MP3
================================================================================



Nazaj na vrh
Poglej uporabnikov profil Pošlji zasebno sporočilo
LightBit



Pridružen/-a: Pon Okt 2017 23:11
Prispevkov: 917
Kraj: Kranj

PrispevekObjavljeno: Pet Nov 22, 2019 19:52    Naslov sporočila: Odgovori s citatom

Če koga zanima alternativa za Linux: http://dr14tmeter.sourceforge.net/index.php/DR14_T.meter
_________________
Behringer über alles.
Nazaj na vrh
Poglej uporabnikov profil Pošlji zasebno sporočilo
mcnaget



Pridružen/-a: Čet Nov 2012 12:28
Prispevkov: 63
Kraj: Gorenjska

PrispevekObjavljeno: Pet Nov 22, 2019 21:15    Naslov sporočila: Odgovori s citatom

longplay je napisal/a:
Danes sprobal Hello od Adele peak za las da ne doseže ničle sem pričakoval da bo šlo čez ničlo, ker glas gre v nebo. Dynamic range pa kaže vrednost petih db. Shocked

foobar2000 1.2.9 / Dynamic Range Meter 1.1.1
log date: 2015-10-27 01:30:20

--------------------------------------------------------------------------------
Statistics for: ?-Adele - Hello
Number of samples: 16180463
Duration: 6:07
--------------------------------------------------------------------------------

Left Right

Peak Value: 0.00 dB --- 0.00 dB
Avg RMS: -9.26 dB --- -9.00 dB
DR channel: 5.21 dB --- 4.88 dB
--------------------------------------------------------------------------------

Official DR Value: DR5

Samplerate: 44100 Hz
Channels: 2
Bitrate: 128 kbps
Codec: MP3
================================================================================





Daj prosim probaj 6 string theory Lee Ritenour ,kakšen bo DR , oprosti ker te tikam..

lpz
Nazaj na vrh
Poglej uporabnikov profil Pošlji zasebno sporočilo
NCC2000



Pridružen/-a: Čet Sep 2012 12:28
Prispevkov: 514
Kraj: Slovenia

PrispevekObjavljeno: Pet Nov 22, 2019 22:02    Naslov sporočila: Odgovori s citatom

Nazaj na vrh
Poglej uporabnikov profil Pošlji zasebno sporočilo
mcnaget



Pridružen/-a: Čet Nov 2012 12:28
Prispevkov: 63
Kraj: Gorenjska

PrispevekObjavljeno: Sob Nov 23, 2019 10:51    Naslov sporočila: Odgovori s citatom

NCC2000 je napisal/a:





Hvala..
Nazaj na vrh
Poglej uporabnikov profil Pošlji zasebno sporočilo
Pokaži sporočila:   
Objavi novo temo   Odgovori na to temo    Kazalo po www.audio-kontakt.com forumu -> CD, Vinil, DVD, Blu-ray Časovni pas GMT + 2 uri, srednjeevropski - poletni čas
Pojdi na stran Prejšnja  1, 2, 3
Stran 3 od 3

 
Pojdi na:  
Ne, ne moreš dodajati novih tem v tem forumu
Ne, ne moreš odgovarjati na teme v tem forumu
Ne, ne moreš urejati svojih prispevkov v tem forumu
Ne, ne moreš brisati svojih prispevkov v tem forumu
Ne ne moreš glasovati v anketi v tem forumu


Powered by phpBB © 2001, 2005 phpBB Group


Zadnje teme - HI-FI

Zadnje teme - ostalo

VIDEOTEKA
© www.audio-kontakt.com  |  info@audio-kontakt.com  |  Pogoji uporabe
Izdelava: slo-code.com